Tags
Language
Tags
July 2024
Su Mo Tu We Th Fr Sa
30 1 2 3 4 5 6
7 8 9 10 11 12 13
14 15 16 17 18 19 20
21 22 23 24 25 26 27
28 29 30 31 1 2 3

Ry Cooder & Corridos Famosos - Live at the Great American Music Hall, San Francisco (2013)

Posted By: Designol
Ry Cooder & Corridos Famosos - Live at the Great American Music Hall, San Francisco (2013)

Ry Cooder & Corridos Famosos - Live at the Great American Music Hall, San Francisco (2013)
XLD | FLAC | Image (Cue&Log) ~ 407 Mb | Mp3 (CBR320) ~ 182 Mb | Scans included
Label: Nonesuch Records/Rerro Verde | # 534585-2 | Time: 01:13:05
Americana, Blues, Roots Rock, Country Rock, Tex-Mex

Live in San Francisco is a collaborative live album by Ry Cooder and Corridos Famosos released in September 2013 by Nonesuch Records and Perro Verde. The album was recorded in 2011 at the Great American Music Hall in San Francisco, California. Cooder produced Live in San Francisco and recorded with members of Corridos Famosos, which included vocalists Juliette Commagere, Terry Evans, and Arnold McCuller, Joachim Cooder on drums, Robert Francis on bass, Flaco Jiménez on accordion, and the ten-piece Mexican brass band La Banda Juvenil. It was his first live album since Show Time (1977), which Cooder also recorded at the Great American Music Hall with Jiménez and Evans.

Recorded with a full band over two nights in 2011, this Ry Cooder & Corridos Famosos concert offering marks the guitarist's first live recording under his own name since 1988. His band is, as one would expect, full of killer musicians, many of them old friends. The vocalists include Juliette Commagere, Terry Evans, and Arnold McCuller. Son Joachim holds down the drum chair while Robert Francis plays bass and Flaco Jiménez appears intermittently on accordion. In addition, Cooder recruited the ten-piece brass ensemble La Banda Juvenil from Mexico. The program consists of 12 tunes. While only two are originals – live readings of tunes from Pull Up Some Dust and Sit Down – many of these selections are Cooder heritage favorites. The opener is a snarling, soul-blues read of "Crazy 'Bout an Automobile," with a mean slide solo and Arturo Gallardo's bass sax burping in tandem. It's followed by a fine, gospelized reading of "Why Dont You Try Me?" (from 1980's Borderline) that gets not only all three vocalists in on the action, but the entire horn section as well. The big surprises are the inclusion of "Boomer's Story" – with excellent martial shuffling by Joachim – and the "The Dark End of the Street," with Evans and McCuller in duet, and Jiménez's accordion adding a lonesome sweetness to the proceedings. Cooder's stage banter is in fine form as well, as evidenced by his introduction to the smoking "El Corrido de Jesse James." The other original, "Lord Tell Me Why," with Evans singing the ironic "racial" lyric, underscores its intentional absurdity. Cooder remains a master of traditional and cover material. There are two Woody Guthrie tunes here and both are radically reworked. "Do Re Mi" is a polka in which Pablo Molina's Sousaphone and Jiménez's accordion duel for dominance, and "Vigilante Man" is nasty, moaning, grimy blues driven by the slide guitar. Sam "The Sham" Samudio's "Wooly Bully" is given a full-on boogie treatment by the whole band, and there is a reprise of Gene Barge's "School Is Out," that first appeared on the live album Show Time in 1976. Commagere takes center stage on the Fernando Maldonado classic "Volver Volver," with Le Banda Juvenil in full mariachi mode. She delivers the tune with stirring, soulful commitment. The set closes with a loose, beautifully performed "Goodnight Irene," with Jiménez coloring in the edges with his deft squeeze box, and Cooder's guitar answering with one of his most tender solos on record. For those who've longed for the return of his immediate, loose, warm, live recordings, Live at the Great American Music Hall is where it's at.

Review by Thom Jurek, Allmusic.com

Ry Cooder & Corridos Famosos - Live at the Great American Music Hall, San Francisco (2013)



Tracklist:

01. Crazy 'Bout an Automobile (05:08)
02. Why Don't You Try Me (05:28)
03. Boomer's Story (04:42)
04. Lord Tell Me Why (06:18)
05. Do Re Mi (05:43)
06. School Is Out (05:01)
07. The Dark End of the Street (07:31)
08. El Corrido de Jesse James (06:16)
09. Wooly Bully (04:59)
10. Volver Volver (06:30)
11. Vigilante Man (08:18)
12. Goodnight Irene (07:06)


X Lossless Decoder version 20130720 (144.0)

XLD extraction logfile from 2013-10-21 13:32:42 +0300

Ry Cooder and Corridos Famosos / Live in San Francisco

Used drive : MATSHITA DVD-R UJ-898 (revision HC09)
Media type : Pressed CD

Ripper mode : XLD Secure Ripper
Disable audio cache : OK for the drive with a cache less than 1375KiB
Make use of C2 pointers : NO
Read offset correction : 102
Max retry count : 20
Gap status : Analyzed, Appended

TOC of the extracted CD
Track | Start | Length | Start sector | End sector
––––––––––––––––––––––––––––-
1 | 00:00:00 | 05:08:23 | 0 | 23122
2 | 05:08:23 | 05:28:49 | 23123 | 47771
3 | 10:36:72 | 04:42:24 | 47772 | 68945
4 | 15:19:21 | 06:18:36 | 68946 | 97331
5 | 21:37:57 | 05:43:08 | 97332 | 123064
6 | 27:20:65 | 05:01:62 | 123065 | 145701
7 | 32:22:52 | 07:31:60 | 145702 | 179586
8 | 39:54:37 | 06:16:15 | 179587 | 207801
9 | 46:10:52 | 04:59:17 | 207802 | 230243
10 | 51:09:69 | 06:30:24 | 230244 | 259517
11 | 57:40:18 | 08:18:68 | 259518 | 296935
12 | 65:59:11 | 07:06:58 | 296936 | 328943

AccurateRip Summary (DiscID: 001ea78b-012220eb-aa11210c)
Track 01 : OK (v2, confidence 3/3)
Track 02 : OK (v2, confidence 4/4)
Track 03 : OK (v2, confidence 4/4)
Track 04 : OK (v2, confidence 4/4)
Track 05 : OK (v2, confidence 4/4)
Track 06 : OK (v2, confidence 4/4)
Track 07 : OK (v2, confidence 4/4)
Track 08 : OK (v2, confidence 4/4)
Track 09 : OK (v2, confidence 4/4)
Track 10 : OK (v2, confidence 4/4)
Track 11 : OK (v2, confidence 4/4)
Track 12 : OK (v2, confidence 4/4)
->All tracks accurately ripped.

All Tracks
Filename : /Users/Home/Music/my rips/ry coodder and corridos famosos -live in sun francisco-2013/Ry Cooder and Corridos Famosos-Live in San Francisco-2013.flac
Album gain : -5.60 dB
Peak : 0.999908
CRC32 hash (test run) : B4C1865F
CRC32 hash : B4C1865F
CRC32 hash (skip zero) : EFF77A42
Statistics
Read error : 0
Jitter error (maybe fixed) : 0
Retry sector count : 0
Damaged sector count : 0

Track 01
Pre-gap length : 00:02:00

Track gain : -5.35 dB
Peak : 0.999908
CRC32 hash (test run) : 4D810970
CRC32 hash : 4D810970
CRC32 hash (skip zero) : 92606F7E
AccurateRip v1 signature : 5221140E
AccurateRip v2 signature : 3ED1C85E
->Accurately ripped (v2, confidence 3/3)
Statistics
Read error : 0
Jitter error (maybe fixed) : 0
Retry sector count : 0
Damaged sector count : 0

Track 02

Track gain : -6.47 dB
Peak : 0.998016
CRC32 hash (test run) : 2F9FFFFB
CRC32 hash : 2F9FFFFB
CRC32 hash (skip zero) : 3BF9423F
AccurateRip v1 signature : A7DD182E
AccurateRip v2 signature : 09195547
->Accurately ripped (v2, confidence 4/4)
Statistics
Read error : 0
Jitter error (maybe fixed) : 0
Retry sector count : 0
Damaged sector count : 0

Track 03

Track gain : -3.10 dB
Peak : 0.919525
CRC32 hash (test run) : 905A082B
CRC32 hash : 905A082B
CRC32 hash (skip zero) : C819BB8C
AccurateRip v1 signature : B46056A5
AccurateRip v2 signature : 511DAAD2
->Accurately ripped (v2, confidence 4/4)
Statistics
Read error : 0
Jitter error (maybe fixed) : 0
Retry sector count : 0
Damaged sector count : 0

Track 04

Track gain : -5.16 dB
Peak : 0.997711
CRC32 hash (test run) : 2764B153
CRC32 hash : 2764B153
CRC32 hash (skip zero) : D83835CA
AccurateRip v1 signature : 60C0094E
AccurateRip v2 signature : 9D2C38F4
->Accurately ripped (v2, confidence 4/4)
Statistics
Read error : 0
Jitter error (maybe fixed) : 0
Retry sector count : 0
Damaged sector count : 0

Track 05

Track gain : -5.47 dB
Peak : 0.971313
CRC32 hash (test run) : 8D647430
CRC32 hash : 8D647430
CRC32 hash (skip zero) : 2EE69833
AccurateRip v1 signature : 5046C0E5
AccurateRip v2 signature : 4CA87618
->Accurately ripped (v2, confidence 4/4)
Statistics
Read error : 0
Jitter error (maybe fixed) : 0
Retry sector count : 0
Damaged sector count : 0

Track 06

Track gain : -6.01 dB
Peak : 0.995483
CRC32 hash (test run) : A14E5B39
CRC32 hash : A14E5B39
CRC32 hash (skip zero) : 850BA09F
AccurateRip v1 signature : E04163CB
AccurateRip v2 signature : B829D0F6
->Accurately ripped (v2, confidence 4/4)
Statistics
Read error : 0
Jitter error (maybe fixed) : 0
Retry sector count : 0
Damaged sector count : 0

Track 07

Track gain : -3.79 dB
Peak : 0.932861
CRC32 hash (test run) : 75B66A4E
CRC32 hash : 75B66A4E
CRC32 hash (skip zero) : 17CC427A
AccurateRip v1 signature : 5B375906
AccurateRip v2 signature : 119252D7
->Accurately ripped (v2, confidence 4/4)
Statistics
Read error : 0
Jitter error (maybe fixed) : 0
Retry sector count : 0
Damaged sector count : 0

Track 08

Track gain : -6.56 dB
Peak : 0.999908
CRC32 hash (test run) : F2B8B00B
CRC32 hash : F2B8B00B
CRC32 hash (skip zero) : 02568F1B
AccurateRip v1 signature : 3C0083C8
AccurateRip v2 signature : C6C284FD
->Accurately ripped (v2, confidence 4/4)
Statistics
Read error : 0
Jitter error (maybe fixed) : 0
Retry sector count : 0
Damaged sector count : 0

Track 09

Track gain : -7.04 dB
Peak : 0.999908
CRC32 hash (test run) : 33EAA4F9
CRC32 hash : 33EAA4F9
CRC32 hash (skip zero) : 84FF9C5F
AccurateRip v1 signature : 97A96932
AccurateRip v2 signature : 68402497
->Accurately ripped (v2, confidence 4/4)
Statistics
Read error : 0
Jitter error (maybe fixed) : 0
Retry sector count : 0
Damaged sector count : 0

Track 10

Track gain : -5.60 dB
Peak : 0.999908
CRC32 hash (test run) : 8BFFD90E
CRC32 hash : 8BFFD90E
CRC32 hash (skip zero) : A618CF87
AccurateRip v1 signature : 09C009C1
AccurateRip v2 signature : 2FAE2B20
->Accurately ripped (v2, confidence 4/4)
Statistics
Read error : 0
Jitter error (maybe fixed) : 0
Retry sector count : 0
Damaged sector count : 0

Track 11

Track gain : -3.17 dB
Peak : 0.976501
CRC32 hash (test run) : 2D792A2C
CRC32 hash : 2D792A2C
CRC32 hash (skip zero) : F2B14317
AccurateRip v1 signature : 975A27E4
AccurateRip v2 signature : D5F27A01
->Accurately ripped (v2, confidence 4/4)
Statistics
Read error : 0
Jitter error (maybe fixed) : 0
Retry sector count : 0
Damaged sector count : 0

Track 12

Track gain : -2.79 dB
Peak : 0.933380
CRC32 hash (test run) : 92E991ED
CRC32 hash : 92E991ED
CRC32 hash (skip zero) : 85FEF304
AccurateRip v1 signature : C4855CDB
AccurateRip v2 signature : EDBA9786
->Accurately ripped (v2, confidence 4/4)
Statistics
Read error : 0
Jitter error (maybe fixed) : 0
Retry sector count : 0
Damaged sector count : 0

No errors occurred

End of status report

foobar2000 1.2 / Dynamic Range Meter 1.1.1
log date: 2016-06-12 13:34:36

––––––––––––––––––––––––––––––––––––––––
Analyzed: Ry Cooder and Corridos Famosos / Live in San Francisco
––––––––––––––––––––––––––––––––––––––––

DR Peak RMS Duration Track
––––––––––––––––––––––––––––––––––––––––
DR10 0.00 dB -12.56 dB 5:08 01-Crazy 'Bout an Automobile
DR9 -0.02 dB -11.94 dB 5:29 02-Why Don't You Try Me
DR12 -0.73 dB -15.12 dB 4:42 03-Boomer's Story
DR10 -0.02 dB -13.16 dB 6:18 04-Lord Tell Me Why
DR9 -0.25 dB -12.18 dB 5:43 05-Do Re Mi
DR9 -0.04 dB -11.99 dB 5:02 06-School Is Out
DR12 -0.60 dB -15.94 dB 7:32 07-The Dark End of the Street
DR9 0.00 dB -12.44 dB 6:16 08-El Corrido de Jesse James
DR8 0.00 dB -11.51 dB 4:59 09-Wooly Bully
DR11 0.00 dB -15.20 dB 6:30 10-Volver Volver
DR12 -0.21 dB -14.91 dB 8:19 11-Vigilante Man
DR12 -0.60 dB -15.79 dB 7:07 12-Goodnight Irene
––––––––––––––––––––––––––––––––––––––––

Number of tracks: 12
Official DR value: DR10

Samplerate: 44100 Hz
Channels: 2
Bits per sample: 16
Bitrate: 751 kbps
Codec: FLAC
================================================================================

Ry Cooder & Corridos Famosos - Live at the Great American Music Hall, San Francisco (2013)

Ry Cooder & Corridos Famosos - Live at the Great American Music Hall, San Francisco (2013)

All thanks to original releaser

More interesting music in My Blog