Tags
Language
Tags
November 2022
Su Mo Tu We Th Fr Sa
30 31 1 2 3 4 5
6 7 8 9 10 11 12
13 14 15 16 17 18 19
20 21 22 23 24 25 26
27 28 29 30 1 2 3

London Symphony Orchestra, Valery Gergiev - Tchaikovsky: Symphonies 1 - 3 (2012) [Official Digital Download]

Posted By: HDV
London Symphony Orchestra, Valery Gergiev - Tchaikovsky: Symphonies 1 - 3 (2012) [Official Digital Download]

Valery Gergiev, London Symphony Orchestra - Tchaikovsky: Symphonies 1-3 (2012)
FLAC (tracks) 24 bit/48 kHz | Time - 126:02 minutes | 1,16 GB
Studio Master, Official Digital Download | Artwork: PDF sleeve

Two alumni of the St Petersburg Conservatory are brought together on this recording – Pyotr Ilyich Tchaikovsky and Valery Gergiev, both educated in the same historic city a hundred years apart.

[Whilst Gergiev’s distinguished musical career has never been in doubt, Tchaikovsky was initially not so fortunate. Becoming a composer in 1860s Russia was not an easy path, and Tchaikovsky was originally destined for the civil service. Moreover, as an aspiring young composer he was poised between the western classical music tradition and the earthier, folk-inspired one of his native land. If finding his way to a musical career was hard enough, how was he to develop his own compositional language between competing interests?

The symphonies on this disc chart Tchaikovsky’s journey from a conscientious explorer of classical structures to someone altogether freer and more inventive, via the attractive nationalism of Symphony No 2 (the ‘Little Russian’). By the third symphony – a five-movement work lasting nearly fifty minutes – Tchaikovsky has fused folk impulses and dance-like episodes within a larger, more reflective structure. The result is both joyous and convincing. The riddle has been solved.

The lyricism of Tchaikovsky ballet scores pervades all three symphonies, but melodic ideas are subjected to a great deal more rigour – such as intense contrapuntal development (in the final movement of the first symphony) and endless thematic reworkings (eg the third movement of No 2). The composer’s inventive approach to orchestration is remarkable, too. In retrospect it does not seem entirely tragic that the vast Russian civil service did without this particular recruit.

And the interpreter? Having found his way to St Petersburg a century after Tchaikovsky, Gergiev has become almost synonymous with the place, closely associated with its musical traditions and intensely proud of them, too. But as a global musical figure he is always suspended somewhere between east and west, not unlike the young Tchaikovsky himself. Who better to guide us through the composer’s first essays in symphonic form? Gergiev’s adopted orchestra gives a full-blooded performance and the LSO strings appear to have become naturalised Russians under his direction. These are compelling accounts by any standards.

Tracklist:

01 - Symphony No 1: i. Allegro tranquillo
02 - Symphony No 1: ii. Adagio cantabile ma non tanto
03 - Symphony No 1: iii. Scherzo: Allegro scherzando giocoso
04 - Symphony No 1: iv. Finale: Andante lugubre - Allegro maestoso
05 - Symphony No 2: i. Andante sostenuto - Allegro vivo
06 - Symphony No 2: ii. Andantino marziale, quasi moderato
07 - Symphony No 2: iii. Scherzo: Allegro molto vivace
08 - Symphony No 2: iv. Finale: Moderato assai - Allegro vivo
09 - Symphony No 3: i. Introduzione e Allegro: Moderato assai
10 - Symphony No 3: ii. Alla tedesca: Allegro moderato e semplice
11 - Symphony No 3: iii. Andante elegiaco
12 - Symphony No 3: iv. Scherzo: Allegro vivo
13 - Symphony No 3: v. Finale: Allegro con fuoco

Recorded in January-May 2011 at the Barbican, London & the Tonhalle Zurich, Switzerland.

Analyzed: LSO / Gergiev / LSO0710 TCHAIKOVSKY Symphonies Nos 1-3
––––––––––––––––––––––––––––––––––––––––

DR Peak RMS Duration Track
––––––––––––––––––––––––––––––––––––––––
DR15 -4.41 dB -25.54 dB 12:03 01-Symphony No 1: i. Allegro tranquillo
DR15 -9.38 dB -31.86 dB 12:06 02-Symphony No 1: ii. Adagio cantabile ma non tanto
DR17 -5.95 dB -30.39 dB 7:13 03-Symphony No 1: iii. Scherzo: Allegro scherzando giocoso
DR16 0.00 dB -22.07 dB 12:10 04-Symphony No 1: iv. Finale: Andante lugubre - Allegro maestoso
DR15 -2.96 dB -25.58 dB 11:59 05-Symphony No 2: i. Andante sostenuto - Allegro vivo
DR18 -6.29 dB -30.97 dB 7:15 06-Symphony No 2: ii. Andantino marziale, quasi moderato
DR15 -3.77 dB -27.41 dB 5:36 07-Symphony No 2: iii. Scherzo: Allegro molto vivace
DR15 -0.02 dB -21.31 dB 9:42 08-Symphony No 2: iv. Finale: Moderato assai - Allegro vivo
DR14 -1.32 dB -21.37 dB 14:54 09-Symphony No 3: i. Introduzione e Allegro: Moderato assai
DR13 -11.17 dB -29.30 dB 7:20 10-Symphony No 3: ii. Alla tedesca: Allegro moderato e semplice
DR15 -6.18 dB -27.82 dB 10:33 11-Symphony No 3: iii. Andante elegiaco
DR13 -7.81 dB -27.82 dB 5:50 12-Symphony No 3: iv. Scherzo: Allegro vivo
DR13 0.00 dB -17.44 dB 9:20 13-Symphony No 3: v. Finale: Allegro con fuoco
––––––––––––––––––––––––––––––––––––––––

Number of tracks: 13
Official DR value: DR15

Samplerate: 48000 Hz
Channels: 2
Bits per sample: 24
Bitrate: 1484 kbps
Codec: FLAC
================================================================================


Thanks to the Original customer!