Featured TV Shows


The Good Doctor S02E12

Posted By: Tavaz
1080p (FullHD) / HDTV IMDb
The Good Doctor S02E12

The Good Doctor S02E12
HDTV | MKV | 1920x1080 | French / English | H264 @ 9029 kbps | AAC @ 61 kbps | 40 min 58 s | 2.62 GiB
Subtitles: French
Genre: Drama


A young surgeon with Savant syndrome is recruited into the surgical unit of a prestigious hospital. The question will arise: can a person who doesn't have the ability to relate to people actually save their lives?

5f601a3891a64bb7a7dc6da2a4ff5509.mkv (2.6 GB)



General
Unique ID : 93058709561715506150657364876015112635 (0x4602749DD11E203C7E09A83DA28B11BB)
Complete name : ./5f601a3891a64bb7a7dc6da2a4ff5509.mkv
Format : Matroska
Format version : Version 4 / Version 2
File size : 2.62 GiB
Duration : 40 min 58 s
Overall bit rate : 9 156 kb/s
Encoded date : UTC 2019-10-09 20:59:22
Writing application : mkvmerge v38.0.0 ('The Silent Type') 64-bit
Writing library : libebml v1.3.9 + libmatroska v1.5.2

Video
ID : 1
Format : AVC
Format/Info : Advanced Video Codec
Format profile : High@L4
Format settings : CABAC / 4 Ref Frames
Format settings, CABAC : Yes
Format settings, RefFrames : 4 frames
Format settings, GOP : M=8, N=32
Codec ID : V_MPEG4/ISO/AVC
Duration : 40 min 58 s
Bit rate : 9 029 kb/s
Width : 1 920 pixels
Height : 1 080 pixels
Display aspect ratio : 16:9
Frame rate mode : Variable
Frame rate : 25.000 FPS
Standard : Component
Color space : YUV
Chroma subsampling : 4:2:0
Bit depth : 8 bits
Scan type : MBAFF
Scan type, store method : Separated fields
Scan order : Top Field First
Bits/(Pixel*Frame) : 0.174
Stream size : 2.58 GiB (99%)
Default : Yes
Forced : No
Color range : Limited
Color primaries : BT.709
Transfer characteristics : BT.709
Matrix coefficients : BT.709

Audio #1
ID : 2
Format : AAC
Format/Info : Advanced Audio Codec
Format profile : HE-AAC / LC
Format settings : Explicit
Codec ID : A_AAC-2
Duration : 40 min 57 s
Bit rate : 61.9 kb/s
Channel(s) : 2 channels
Channel positions : Front: L R
Sampling rate : 48.0 kHz / 24.0 kHz
Frame rate : 23.438 FPS (1024 SPF)
Compression mode : Lossy
Stream size : 18.1 MiB (1%)
Title : French
Language : French
Default : Yes
Forced : No

Audio #2
ID : 3
Format : AAC
Format/Info : Advanced Audio Codec
Format profile : HE-AAC / LC
Format settings : Explicit
Codec ID : A_AAC-2
Duration : 40 min 57 s
Bit rate : 61.9 kb/s
Channel(s) : 2 channels
Channel positions : Front: L R
Sampling rate : 48.0 kHz / 24.0 kHz
Frame rate : 23.438 FPS (1024 SPF)
Compression mode : Lossy
Stream size : 18.1 MiB (1%)
Title : English
Language : English
Default : No
Forced : No

Text #1
ID : 4
Format : UTF-8
Codec ID : S_TEXT/UTF8
Codec ID/Info : UTF-8 Plain Text
Duration : 40 min 4 s
Bit rate : 62 b/s
Count of elements : 651
Stream size : 18.4 KiB (0%)
Title : French
Language : French
Default : No
Forced : No

Text #2
ID : 5
Format : UTF-8
Codec ID : S_TEXT/UTF8
Codec ID/Info : UTF-8 Plain Text
Duration : 40 min 46 s
Bit rate : 63 b/s
Count of elements : 594
Stream size : 19.0 KiB (0%)
Title : French (SDH)
Language : French
Default : No
Forced : No





The Good Doctor S02E12


The Good Doctor S02E12


The Good Doctor S02E12


The Good Doctor S02E12


The Good Doctor S02E12

All episodes