Subcategories
Tags
Language
Tags

Zen - Hair (1969) [Reissue 2002]

Posted By: gribovar
Zen - Hair (1969) [Reissue 2002]

Zen - Hair (1969) [Reissue 2002]
EAC Rip | FLAC (tracks+.cue+log) - 402 MB | MP3 CBR 320 kbps (LAME 3.93) - 155 MB | Covers (5 MB) included
Genre: Psychedelic Rock, Pop Rock | RAR 3% Rec. | Label: Rotation/Universal Music (018 948-2)

Zen is a Dutch rock band, founded by Siegfried 'Siebe' de Jong (vocals and saxophone) and Dirk van der Ploeg (guitar and vocals) in 1965. Van der Ploeg writes the lyrics, music and arrangements.
This is the rare first album from the 60s psych pop Dutch band, originally released in 1969. The hippie-oriented band hits the top spot on the Dutch Top 40 singles chart in January 1969, with their version of the theme from the musical "Hair".
After various line-up changes, the band dissolves in 1977. In the 1980s the first incarnation of the band plays some reunion concerts.
Tracklist:
01. Hair (From the musical "Hair")
02. Take It
03. I've Been Drowned
04. You Better Start Running Away From Me
05. I Want You
06. I'm Tired Again
07. Aquarius (From the musical "Hair")
08. Tiny Little Bee
09. Don't Try Reincarnation
10. Please Accept My Invitation
11. I Love Your Sigh
12. Sad Song

Bonus tracks:
13. Dark Days Of December
14. Bye bye Heart
15. Everyday Around You
16. Get Me Down
17. Wayfaring Stranger
18. Take Me Down To The Riverside
19. Let Me Try To Cry
20. Birds Can See My Tears
21. I Love Your Sigh (Basistape track 11)
22. Sad Song (Basistape track 12)
23. Jingles t.b.v. Radio Veronica

Total time: 01:03:35

Exact Audio Copy V0.99 prebeta 3 from 28. July 2007

EAC extraction logfile from 12. November 2009, 19:45

Zen / Hair

Used drive : HL-DT-STDVD-RAM GH22LP20 Adapter: 0 ID: 1

Read mode : Secure
Utilize accurate stream : Yes
Defeat audio cache : Yes
Make use of C2 pointers : No

Read offset correction : 102
Overread into Lead-In and Lead-Out : No
Fill up missing offset samples with silence : Yes
Delete leading and trailing silent blocks : No
Null samples used in CRC calculations : Yes
Used interface : Native Win32 interface for Win NT & 2000
Gap handling : Appended to previous track

Used output format : Internal WAV Routines
Sample format : 44.100 Hz; 16 Bit; Stereo


TOC of the extracted CD

Track | Start | Length | Start sector | End sector
––––––––––––––––––––––––––––-
1 | 0:00.00 | 2:09.21 | 0 | 9695
2 | 2:09.21 | 3:20.54 | 9696 | 24749
3 | 5:30.00 | 2:33.71 | 24750 | 36295
4 | 8:03.71 | 3:04.13 | 36296 | 50108
5 | 11:08.09 | 2:55.51 | 50109 | 63284
6 | 14:03.60 | 2:17.13 | 63285 | 73572
7 | 16:20.73 | 2:39.61 | 73573 | 85558
8 | 19:00.59 | 3:21.51 | 85559 | 100684
9 | 22:22.35 | 2:29.73 | 100685 | 111932
10 | 24:52.33 | 2:16.68 | 111933 | 122200
11 | 27:09.26 | 2:43.23 | 122201 | 134448
12 | 29:52.49 | 2:35.27 | 134449 | 146100
13 | 32:28.01 | 3:09.14 | 146101 | 160289
14 | 35:37.15 | 2:05.67 | 160290 | 169731
15 | 37:43.07 | 3:47.52 | 169732 | 186808
16 | 41:30.59 | 2:53.32 | 186809 | 199815
17 | 44:24.16 | 3:28.29 | 199816 | 215444
18 | 47:52.45 | 2:50.16 | 215445 | 228210
19 | 50:42.61 | 4:08.12 | 228211 | 246822
20 | 54:50.73 | 2:41.19 | 246823 | 258916
21 | 57:32.17 | 2:43.17 | 258917 | 271158
22 | 60:15.34 | 2:38.22 | 271159 | 283030
23 | 62:53.56 | 0:41.45 | 283031 | 286150


Track 1

Filename J:\Zen - Hair (1969) [FLAC]\01 - Hair (from the Musical 'Hair').wav

Pre-gap length 0:00:02.00

Peak level 85.0 %
Track quality 100.0 %
Test CRC 526465DB
Copy CRC 526465DB
Track not present in AccurateRip database
Copy OK

Track 2

Filename J:\Zen - Hair (1969) [FLAC]\02 - Take It.wav

Pre-gap length 0:00:01.98

Peak level 89.0 %
Track quality 100.0 %
Test CRC 9D9CD90A
Copy CRC 9D9CD90A
Track not present in AccurateRip database
Copy OK

Track 3

Filename J:\Zen - Hair (1969) [FLAC]\03 - I've Been Drowned.wav

Pre-gap length 0:00:01.52

Peak level 83.0 %
Track quality 100.0 %
Test CRC FF0DBFB2
Copy CRC FF0DBFB2
Track not present in AccurateRip database
Copy OK

Track 4

Filename J:\Zen - Hair (1969) [FLAC]\04 - You Better Start Running Away From Me.wav

Pre-gap length 0:00:01.88

Peak level 90.8 %
Track quality 100.0 %
Test CRC 1A5A28E7
Copy CRC 1A5A28E7
Track not present in AccurateRip database
Copy OK

Track 5

Filename J:\Zen - Hair (1969) [FLAC]\05 - I Want You.wav

Pre-gap length 0:00:01.98

Peak level 95.5 %
Track quality 100.0 %
Test CRC B7F4BA71
Copy CRC B7F4BA71
Track not present in AccurateRip database
Copy OK

Track 6

Filename J:\Zen - Hair (1969) [FLAC]\06 - I'm Tired Again.wav

Pre-gap length 0:00:02.06

Peak level 80.2 %
Track quality 100.0 %
Test CRC D1C81AEB
Copy CRC D1C81AEB
Track not present in AccurateRip database
Copy OK

Track 7

Filename J:\Zen - Hair (1969) [FLAC]\07 - Aquarius (from the Musical 'Hair').wav

Pre-gap length 0:00:01.98

Peak level 83.1 %
Track quality 100.0 %
Test CRC 2FDAD4C5
Copy CRC 2FDAD4C5
Track not present in AccurateRip database
Copy OK

Track 8

Filename J:\Zen - Hair (1969) [FLAC]\08 - Tiny Little Bee.wav

Pre-gap length 0:00:01.98

Peak level 88.6 %
Track quality 100.0 %
Test CRC F5AF686D
Copy CRC F5AF686D
Track not present in AccurateRip database
Copy OK

Track 9

Filename J:\Zen - Hair (1969) [FLAC]\09 - Don't Try Reincarnation.wav

Pre-gap length 0:00:01.98

Peak level 95.5 %
Track quality 100.0 %
Test CRC E3A4AF44
Copy CRC E3A4AF44
Track not present in AccurateRip database
Copy OK

Track 10

Filename J:\Zen - Hair (1969) [FLAC]\10 - Please Accept My Invitation.wav

Pre-gap length 0:00:01.41

Peak level 75.8 %
Track quality 100.0 %
Test CRC D3DDCEAB
Copy CRC D3DDCEAB
Track not present in AccurateRip database
Copy OK

Track 11

Filename J:\Zen - Hair (1969) [FLAC]\11 - I Love Your Sigh.wav

Pre-gap length 0:00:01.78

Peak level 95.5 %
Track quality 100.0 %
Test CRC 0245D6A3
Copy CRC 0245D6A3
Track not present in AccurateRip database
Copy OK

Track 12

Filename J:\Zen - Hair (1969) [FLAC]\12 - Sad Song.wav

Pre-gap length 0:00:01.76

Peak level 87.6 %
Track quality 100.0 %
Test CRC BD4006E5
Copy CRC BD4006E5
Track not present in AccurateRip database
Copy OK

Track 13

Filename J:\Zen - Hair (1969) [FLAC]\13 - Dark Days of December.wav

Pre-gap length 0:00:02.00

Peak level 95.5 %
Track quality 100.0 %
Test CRC A0997E92
Copy CRC A0997E92
Track not present in AccurateRip database
Copy OK

Track 14

Filename J:\Zen - Hair (1969) [FLAC]\14 - Bye Bye Heart.wav

Pre-gap length 0:00:01.54

Peak level 77.5 %
Track quality 100.0 %
Test CRC 92F6AF1C
Copy CRC 92F6AF1C
Track not present in AccurateRip database
Copy OK

Track 15

Filename J:\Zen - Hair (1969) [FLAC]\15 - Everyday Around You.wav

Pre-gap length 0:00:01.32

Peak level 95.5 %
Track quality 100.0 %
Test CRC 61F47AB3
Copy CRC 61F47AB3
Track not present in AccurateRip database
Copy OK

Track 16

Filename J:\Zen - Hair (1969) [FLAC]\16 - Get Me Down.wav

Pre-gap length 0:00:01.98

Peak level 84.6 %
Track quality 100.0 %
Test CRC 11DEABD3
Copy CRC 11DEABD3
Track not present in AccurateRip database
Copy OK

Track 17

Filename J:\Zen - Hair (1969) [FLAC]\17 - Wayfaring Stranger.wav

Pre-gap length 0:00:01.44

Peak level 93.1 %
Track quality 100.0 %
Test CRC 0F567546
Copy CRC 0F567546
Track not present in AccurateRip database
Copy OK

Track 18

Filename J:\Zen - Hair (1969) [FLAC]\18 - Take Me Down to the Riverside.wav

Pre-gap length 0:00:01.98

Peak level 95.5 %
Track quality 100.0 %
Test CRC 4CE82A7E
Copy CRC 4CE82A7E
Track not present in AccurateRip database
Copy OK

Track 19

Filename J:\Zen - Hair (1969) [FLAC]\19 - Let Me Try to Cry.wav

Pre-gap length 0:00:01.92

Peak level 83.8 %
Track quality 100.0 %
Test CRC 72973E52
Copy CRC 72973E52
Track not present in AccurateRip database
Copy OK

Track 20

Filename J:\Zen - Hair (1969) [FLAC]\20 - Birds Can See My Tears.wav

Pre-gap length 0:00:02.10

Peak level 91.1 %
Track quality 100.0 %
Test CRC DD2275C1
Copy CRC DD2275C1
Track not present in AccurateRip database
Copy OK

Track 21

Filename J:\Zen - Hair (1969) [FLAC]\21 - I Love Your Sigh (alt).wav

Pre-gap length 0:00:01.65

Peak level 95.5 %
Track quality 100.0 %
Test CRC 0871BF54
Copy CRC 0871BF54
Track not present in AccurateRip database
Copy OK

Track 22

Filename J:\Zen - Hair (1969) [FLAC]\22 - Sad Song (alt).wav

Pre-gap length 0:00:01.80

Peak level 96.0 %
Track quality 100.0 %
Test CRC 59258E91
Copy CRC 59258E91
Track not present in AccurateRip database
Copy OK

Track 23

Filename J:\Zen - Hair (1969) [FLAC]\23 - Jingles t.b.v. Radio Veronica.wav

Pre-gap length 0:00:02.00

Peak level 84.2 %
Track quality 100.0 %
Test CRC 02B86BE7
Copy CRC 02B86BE7
Track not present in AccurateRip database
Copy OK


None of the tracks are present in the AccurateRip database

No errors occurred

End of status report

[CUETools log; Date: 04.05.2021 16:50:39; Version: 2.1.4]
[CTDB TOCID: sfYEiIrNoIWVge3GQW._kgB_RRc-] found.
Track | CTDB Status
1 | (9/9) Accurately ripped
2 | (9/9) Accurately ripped
3 | (9/9) Accurately ripped
4 | (9/9) Accurately ripped
5 | (9/9) Accurately ripped
6 | (9/9) Accurately ripped
7 | (9/9) Accurately ripped
8 | (9/9) Accurately ripped
9 | (9/9) Accurately ripped
10 | (9/9) Accurately ripped
11 | (9/9) Accurately ripped
12 | (9/9) Accurately ripped
13 | (9/9) Accurately ripped
14 | (9/9) Accurately ripped
15 | (9/9) Accurately ripped
16 | (9/9) Accurately ripped
17 | (9/9) Accurately ripped
18 | (9/9) Accurately ripped
19 | (9/9) Accurately ripped
20 | (9/9) Accurately ripped
21 | (9/9) Accurately ripped
22 | (9/9) Accurately ripped
23 | (9/9) Accurately ripped
[AccurateRip ID: 0034df3d-0375e2b7-510ee717] found.
Track [ CRC | V2 ] Status
01 [f571088c|ee0b173d] (0+3/3) Accurately ripped
02 [cad8b374|0bb5f8fa] (0+3/3) Accurately ripped
03 [5746d51c|e6f48a48] (0+3/3) Accurately ripped
04 [d3bbfc0c|bc87257b] (0+3/3) Accurately ripped
05 [f0a5f1c4|d76fedcd] (0+3/3) Accurately ripped
06 [2c169112|8cb32c3e] (0+3/3) Accurately ripped
07 [d59e2869|a3483f7d] (0+3/3) Accurately ripped
08 [483a2417|a78d3867] (0+3/3) Accurately ripped
09 [c90a1460|49dced04] (0+3/3) Accurately ripped
10 [f9bc50aa|e48af951] (0+3/3) Accurately ripped
11 [78c60f0f|9667b4b7] (0+3/3) Accurately ripped
12 [6cbc2acd|d1e1413c] (0+3/3) Accurately ripped
13 [ef2f86fd|7bcc61e5] (0+3/3) Accurately ripped
14 [3a5790c4|243372f8] (0+3/3) Accurately ripped
15 [31ce5d98|6e031f58] (0+3/3) Accurately ripped
16 [1a447350|6de977c2] (0+3/3) Accurately ripped
17 [226fb361|85a6fd96] (0+3/3) Accurately ripped
18 [e4ff0d77|555e28e2] (0+3/3) Accurately ripped
19 [ca8dffbd|15d686ba] (0+3/3) Accurately ripped
20 [8984893c|bdd1273b] (0+3/3) Accurately ripped
21 [68d35ff8|99ab91bb] (0+3/3) Accurately ripped
22 [e2e1152a|51c99ef1] (0+3/3) Accurately ripped
23 [807a81d5|f797ac16] (0+3/3) Accurately ripped

Track Peak [ CRC32 ] [W/O NULL] [ LOG ]
– 96,0 [60B2397B] [287BC756]
01 85,0 [526465DB] [F900FB12] CRC32
02 89,0 [9D9CD90A] [8F44C913] CRC32
03 83,0 [FF0DBFB2] [DF2175C7] CRC32
04 90,8 [1A5A28E7] [5EEF1CB3] CRC32
05 95,5 [B7F4BA71] [EF4D1683] CRC32
06 80,2 [D1C81AEB] [C2D0F177] CRC32
07 83,1 [2FDAD4C5] [3F878447] CRC32
08 88,6 [F5AF686D] [572A6195] CRC32
09 95,5 [E3A4AF44] [3C7BFDB2] CRC32
10 75,8 [D3DDCEAB] [E8AFF9F2] CRC32
11 95,5 [0245D6A3] [45FC3518] CRC32
12 87,6 [BD4006E5] [26F416A4] CRC32
13 95,5 [A0997E92] [73920CB7] CRC32
14 77,5 [92F6AF1C] [1B6D4BB7] CRC32
15 95,5 [61F47AB3] [0396A79D] CRC32
16 84,6 [11DEABD3] [D845669A] CRC32
17 93,1 [0F567546] [FBA0F36C] CRC32
18 95,5 [4CE82A7E] [8B448654] CRC32
19 83,8 [72973E52] [D6800479] CRC32
20 91,1 [DD2275C1] [E09B0616] CRC32
21 95,5 [0871BF54] [5BB55F29] CRC32
22 96,0 [59258E91] [7A4067D8] CRC32
23 84,2 [02B86BE7] [8C3C60ED] CRC32

Thanks to tjana