Tags
Language
Tags
June 2024
Su Mo Tu We Th Fr Sa
26 27 28 29 30 31 1
2 3 4 5 6 7 8
9 10 11 12 13 14 15
16 17 18 19 20 21 22
23 24 25 26 27 28 29
30 1 2 3 4 5 6

Wilson Phillips - Wilson Phillips (1990)

Posted By: Designol
Wilson Phillips - Wilson Phillips (1990)

Wilson Phillips - Wilson Phillips (1990) Holland 1st Press
EAC | FLAC | Image (Cue&Log) ~ 303 Mb | Mp3 (CBR320) ~ 108 Mb | Scans ~ 109 Mb
Pop, Pop/Rock, Soft Rock | Label: SBK | # CDP 79 3745 2, SBKCD 5 | Time: 00:46:02

Sugary, commercial pop/rock isn't necessarily a bad thing, and in fact can be fairly enjoyable in the right hands. But Wilson Phillips are much too sweet for their own good. This debut album – which amazingly went five-times platinum during the early 1990s – is about as lightweight and sophomoric as it gets. Chynna Phillips' weak singing on such homogenized, mundane fluff as "Impulsive," "The Dream Is Still Alive," and the chart-topping "Hold On" isn't even remotely convincing. Compared to Phillips' saccharine performances on "You're in Love" (another major hit) and "A Reason to Believe," even Tiffany and Debbie Gibson's debut albums have some bite.

Review by Alex Henderson, Allmusic.com

Wilson Phillips - Wilson Phillips (1990)



Tracklist:

01. Hold On (4:28)
02. Release Me (4:56)
03. Impulsive (4:34)
04. Next To You (Someday I'll Be) (4:59)
05. You're In Love (4:53)
06. Over And Over (4:39)
07. A Reason To Believe (4:05)
08. Ooh You're Gold (4:18)
09. Eyes Like Twins (5:01)
10. The Dream Is Still Alive (4:09)


Exact Audio Copy V0.99 prebeta 5 from 4. May 2009

EAC extraction logfile from 21. April 2010, 18:20

Wilson Phillips / Wilson Phillips

Used drive : ASUS DRW-1608P Adapter: 2 ID: 1

Read mode : Secure
Utilize accurate stream : Yes
Defeat audio cache : Yes
Make use of C2 pointers : No

Read offset correction : 48
Overread into Lead-In and Lead-Out : No
Fill up missing offset samples with silence : Yes
Delete leading and trailing silent blocks : No
Null samples used in CRC calculations : Yes
Used interface : Installed external ASPI interface

Used output format : User Defined Encoder
Selected bitrate : 1024 kBit/s
Quality : High
Add ID3 tag : No
Command line compressor : C:\Program Files (x86)\Exact Audio Copy\Flac\flac.exe
Additional command line options : -5 -V -T "ARTIST=%a" -T "TITLE=%t" -T "ALBUM=%g" -T "DATE=%y" -T "TRACKNUMBER=%n" -T "GENRE=%m" -T "COMMENT=EAC FLAC -5" %s


TOC of the extracted CD

Track | Start | Length | Start sector | End sector
––––––––––––––––––––––––––––-
1 | 0:00.33 | 4:27.60 | 33 | 20117
2 | 4:28.18 | 4:55.60 | 20118 | 42302
3 | 9:24.03 | 4:34.17 | 42303 | 62869
4 | 13:58.20 | 4:58.63 | 62870 | 85282
5 | 18:57.08 | 4:53.02 | 85283 | 107259
6 | 23:50.10 | 4:39.05 | 107260 | 128189
7 | 28:29.15 | 4:04.63 | 128190 | 146552
8 | 32:34.03 | 4:18.37 | 146553 | 165939
9 | 36:52.40 | 5:01.20 | 165940 | 188534
10 | 41:53.60 | 4:08.43 | 188535 | 207177


Range status and errors

Selected range

Filename F:\Wilson Phillips - Wilson Phillips - 1990\Wilson Phillips - Wilson Phillips.wav

Peak level 99.1 %
Range quality 100.0 %
Test CRC EC28DA2E
Copy CRC EC28DA2E
Copy OK

No errors occurred


AccurateRip summary

Track 1 accurately ripped (confidence 28) [92F03789]
Track 2 accurately ripped (confidence 28) [5F753B2F]
Track 3 accurately ripped (confidence 28) [BC1B965E]
Track 4 accurately ripped (confidence 28) [CB913183]
Track 5 accurately ripped (confidence 28) [3B1C3419]
Track 6 accurately ripped (confidence 28) [58FE6AE2]
Track 7 accurately ripped (confidence 28) [42C3E60A]
Track 8 accurately ripped (confidence 27) [3739CEB5]
Track 9 accurately ripped (confidence 27) [F083B9A0]
Track 10 accurately ripped (confidence 28) [8E862EC0]

All tracks accurately ripped

End of status report

[CUETools log; Date: 21.06.2019 22:53:45; Version: 2.1.4]
Pregap length 00:00:33.
[CTDB TOCID: zPJQhQpzm2_zZWK.EpBdBlYCG_0-] found.
Track | CTDB Status
1 | (449/459) Accurately ripped
2 | (450/459) Accurately ripped, or (1/459) differs in 3509 samples @00:00:29-00:00:32
3 | (448/459) Accurately ripped, or (1/459) differs in 5839 samples @00:00:27-00:00:32
4 | (450/459) Accurately ripped, or (1/459) differs in 3528 samples @00:00:29-00:00:32
5 | (453/459) Accurately ripped
6 | (452/459) Accurately ripped
7 | (450/459) Accurately ripped
8 | (449/459) Accurately ripped
9 | (436/459) Accurately ripped, or (5/459) differs in 8 samples @03:39:63,04:41:32
10 | (440/459) Accurately ripped, or (5/459) differs in 8 samples @02:05:32, or (1/459) differs in 39 samples @00:00:29-00:00:32
[AccurateRip ID: 00119cd7-008ca09b-750aca0a] found.
Track [ CRC | V2 ] Status
01 [92f03789|47132710] (050+073/362) Accurately ripped
02 [5f753b2f|438d1947] (049+075/372) Accurately ripped
03 [bc1b965e|c8e1a7e9] (050+074/370) Accurately ripped
04 [cb913183|3ae71792] (050+074/369) Accurately ripped
05 [3b1c3419|7e2ea5aa] (050+074/372) Accurately ripped
06 [58fe6ae2|302a8481] (050+073/372) Accurately ripped
07 [42c3e60a|bf7dbcc1] (050+073/369) Accurately ripped
08 [3739ceb5|2e704793] (048+072/364) Accurately ripped
09 [f083b9a0|cea94130] (049+073/364) Accurately ripped
10 [8e862ec0|2a7a1436] (049+071/360) Accurately ripped
Offsetted by 57:
01 [fe27f16f] (010/362) Accurately ripped
02 [2b5b597f] (014/372) Accurately ripped
03 [e841c352] (014/370) Accurately ripped
04 [41978f84] (015/369) Accurately ripped
05 [c1299842] (015/372) Accurately ripped
06 [5f8799c4] (015/372) Accurately ripped
07 [414208be] (015/369) Accurately ripped
08 [dd2e0a52] (015/364) Accurately ripped
09 [ad437dcd] (014/364) Accurately ripped
10 [26605dc1] (013/360) Accurately ripped
Offsetted by 62:
01 [cef75c90] (050/362) Accurately ripped
02 [a0876261] (052/372) Accurately ripped
03 [907b0b98] (051/370) Accurately ripped
04 [35b0b65e] (050/369) Accurately ripped
05 [6121c977] (052/372) Accurately ripped
06 [7211637e] (052/372) Accurately ripped
07 [ebcada62] (052/369) Accurately ripped
08 [4e8b52eb] (050/364) Accurately ripped
09 [17a527b6] (050/364) Accurately ripped
10 [c7e846ee] (049/360) Accurately ripped
Offsetted by 301:
01 [a2fdc477] (005/362) Accurately ripped
02 [e28385e9] (004/372) Accurately ripped
03 [70ab5f96] (004/370) Accurately ripped
04 [0bc813e6] (004/369) Accurately ripped
05 [0c795ff6] (004/372) Accurately ripped
06 [4e98746c] (004/372) Accurately ripped
07 [902398ce] (004/369) Accurately ripped
08 [ac8fe116] (004/364) Accurately ripped
09 [757ebfe0] (004/364) Accurately ripped
10 [bef56942] (004/360) Accurately ripped
Offsetted by 328:
01 [1d1fb6c3] (019/362) Accurately ripped
02 [14e40045] (019/372) Accurately ripped
03 [6f4f531f] (019/370) Accurately ripped
04 [d7314866] (019/369) Accurately ripped
05 [d2b59ce1] (018/372) Accurately ripped
06 [e5e6e8f2] (019/372) Accurately ripped
07 [8f6cd1aa] (019/369) Accurately ripped
08 [aa54691d] (019/364) Accurately ripped
09 [b301898a] (019/364) Accurately ripped
10 [8e932042] (018/360) Accurately ripped
Offsetted by -670:
01 [7ca2f07a] (000/362) No match (V2 was not tested)
02 [5d5cdab6] (000/372) No match (V2 was not tested)
03 [70c3c1d7] (000/370) No match (V2 was not tested)
04 [0bfcbda4] (000/369) No match (V2 was not tested)
05 [7f32725b] (000/372) No match (V2 was not tested)
06 [a4ded386] (000/372) No match (V2 was not tested)
07 [ff262a32] (000/369) No match (V2 was not tested)
08 [e065ce9f] (000/364) No match (V2 was not tested)
09 [9d64dbe8] (000/364) No match (V2 was not tested)
10 [0ca40bc0] (000/360) No match (V2 was not tested)
Offsetted by -547:
01 [da417c97] (000/362) No match (V2 was not tested)
02 [f47c72c9] (000/372) No match (V2 was not tested)
03 [82278bd6] (000/370) No match (V2 was not tested)
04 [0a28886a] (000/369) No match (V2 was not tested)
05 [780bf9a6] (000/372) No match (V2 was not tested)
06 [39b602cc] (000/372) No match (V2 was not tested)
07 [fbe5828e] (000/369) No match (V2 was not tested)
08 [2b8fc886] (000/364) No match (V2 was not tested)
09 [d8c7f736] (000/364) No match (V2 was not tested)
10 [297fac5c] (000/360) No match (V2 was not tested)

Track Peak [ CRC32 ] [W/O NULL] [ LOG ]
– 99,1 [EC28DA2E] [34CAE6FA] CRC32
01 99,1 [9298AF5A] [1F09D0B5]
02 99,1 [52FE7A65] [90CB2366]
03 99,1 [72ACCA53] [91C1C958]
04 94,0 [1DE5D4B5] [3A1C0CA3]
05 99,1 [9078FFF5] [6A9CA907]
06 99,1 [411AB845] [A070D423]
07 98,0 [2BEF22ED] [AB784584]
08 94,6 [717897B7] [AFB0663E]
09 94,0 [85B1B596] [75AA94FF]
10 99,1 [2CD31718] [12107620]

foobar2000 1.2 / Dynamic Range Meter 1.1.1
log date: 2019-06-21 22:50:35

––––––––––––––––––––––––––––––––––––––––
Analyzed: Wilson Phillips / Wilson Phillips
––––––––––––––––––––––––––––––––––––––––

DR Peak RMS Duration Track
––––––––––––––––––––––––––––––––––––––––
DR11 -0.07 dB -14.07 dB 4:28 01-Hold On
DR12 -0.07 dB -15.77 dB 4:56 02-Release Me
DR12 -0.07 dB -13.85 dB 4:34 03-Impulsive
DR11 -0.54 dB -14.22 dB 4:59 04-Next To You (Someday I'll Be)
DR12 -0.07 dB -14.56 dB 4:53 05-You're In Love
DR12 -0.07 dB -14.30 dB 4:39 06-Over And Over
DR12 -0.17 dB -15.01 dB 4:05 07-A Reason To Believe
DR13 -0.48 dB -15.33 dB 4:18 08-Ooh You're Gold
DR10 -0.54 dB -13.85 dB 5:01 09-Eyes Like Twins
DR10 -0.07 dB -12.29 dB 4:09 10-The Dream Is Still Alive
––––––––––––––––––––––––––––––––––––––––

Number of tracks: 10
Official DR value: DR11

Samplerate: 44100 Hz
Channels: 2
Bits per sample: 16
Bitrate: 910 kbps
Codec: FLAC
================================================================================

Wilson Phillips - Wilson Phillips (1990)

Wilson Phillips - Wilson Phillips (1990)

All thanks to original releaser - bvstudio

More interesting music in My Blog