Subcategories

Money Mark - Demo? Or Demolition? (EP) (2004) {Pinto/Chocolate Industries} **[RE-UP]**

Posted By: TestTickles
Money Mark - Demo? Or Demolition? (EP) (2004) {Pinto/Chocolate Industries} **[RE-UP]**

Money Mark - Demo? Or Demolition? (EP) (2004) {Pinto/Chocolate Industries}
EAC Rip | FLAC with CUE and log | scans | 126 mb
MP3 CBR 320kbps | RAR | 43 mb
Genre: alternative, alternative pop, pop soul

Demo? Or Demolition? is a 2004 EP release by Mark Ramos-Nishita, who has been known as Keyboard Money Mark but became known simply as Money Mark. This was released on Pinto via Chocolate Industries.

Money Mark - Demo? Or Demolition? (EP) (2004) {Pinto/Chocolate Industries} **[RE-UP]**

1. Livid In A Madman's Hell (3:06)
2. Burn Away (3:51)
3. Three O'Clock (3:07)
4. Break Open My Shells (2:53)
5. Nice 2 Me (2:13)
6. Never Bend (2:07)

Mark-everything
Cava (Cladia Gonzalez)-vocal too (tracks 2, 3 & 5)
Smokey Hormel-guitar (track 3)
Steve Berlin-sax (track 4)
Alfredo Ortiz-percussion (track 4); drums (track 6)
Zach Young-percussion (track 4)
Eric Bobo-percussion (track 4)
G. Love-harmonica (track 5)
Hal Cragin-bass (track 6)


All tracks produced by Mark
Tracks 2, 4 & 6 co-produced by Mario Caldato Jr.
Recorded at Mark's House, Joey's Place, Mario's Secret Loft
Extra knob twisting: Donny at Joey's
Mastered by Robert Carranza

Money Mark - Demo? Or Demolition? (EP) (2004) {Pinto/Chocolate Industries} **[RE-UP]**


Exact Audio Copy V1.1 from 23. June 2015

EAC extraction logfile from 14. December 2016, 8:14

Money Mark / Demo? Or Demolition? (EP)

Used drive : TEAC DVD-ROM DV-28SW Adapter: 1 ID: 0

Read mode : Secure
Utilize accurate stream : Yes
Defeat audio cache : Yes
Make use of C2 pointers : No

Read offset correction : 6
Overread into Lead-In and Lead-Out : No
Fill up missing offset samples with silence : Yes
Delete leading and trailing silent blocks : No
Null samples used in CRC calculations : Yes
Used interface : Native Win32 interface for Win NT & 2000
Gap handling : Appended to previous track

Used output format : Internal WAV Routines
Sample format : 44.100 Hz; 16 Bit; Stereo


TOC of the extracted CD

Track | Start | Length | Start sector | End sector
––––––––––––––––––––––––––––-
1 | 0:00.00 | 3:02.39 | 0 | 13688
2 | 3:02.39 | 3:52.12 | 13689 | 31100
3 | 6:54.51 | 3:07.36 | 31101 | 45161
4 | 10:02.12 | 2:50.30 | 45162 | 57941
5 | 12:52.42 | 2:12.64 | 57942 | 67905
6 | 15:05.31 | 2:09.54 | 67906 | 77634


Track 1

Filename C:\My Documents\My FLAC\Money Mark - Demo Or Demolition (EP) (2004) [FLAC] {Pinto}\01 - Livid In A Madman's Hell.wav

Pre-gap length 0:00:02.00

Peak level 99.9 %
Extraction speed 1.0 X
Track quality 100.0 %
Test CRC 75AABA52
Copy CRC 75AABA52
Track not present in AccurateRip database
Copy OK

Track 2

Filename C:\My Documents\My FLAC\Money Mark - Demo Or Demolition (EP) (2004) [FLAC] {Pinto}\02 - Burn Away.wav

Peak level 99.9 %
Extraction speed 1.1 X
Track quality 100.0 %
Test CRC F7AD1127
Copy CRC F7AD1127
Track not present in AccurateRip database
Copy OK

Track 3

Filename C:\My Documents\My FLAC\Money Mark - Demo Or Demolition (EP) (2004) [FLAC] {Pinto}\03 - Three O'Clock.wav

Peak level 99.9 %
Extraction speed 1.2 X
Track quality 100.0 %
Test CRC 449958A8
Copy CRC 449958A8
Track not present in AccurateRip database
Copy OK

Track 4

Filename C:\My Documents\My FLAC\Money Mark - Demo Or Demolition (EP) (2004) [FLAC] {Pinto}\04 - Break Open My Shells.wav

Peak level 99.9 %
Extraction speed 1.2 X
Track quality 100.0 %
Test CRC 8A9A7A0C
Copy CRC 8A9A7A0C
Track not present in AccurateRip database
Copy OK

Track 5

Filename C:\My Documents\My FLAC\Money Mark - Demo Or Demolition (EP) (2004) [FLAC] {Pinto}\05 - Nice 2 Me.wav

Peak level 99.9 %
Extraction speed 1.1 X
Track quality 100.0 %
Test CRC C6BC24AE
Copy CRC C6BC24AE
Track not present in AccurateRip database
Copy OK

Track 6

Filename C:\My Documents\My FLAC\Money Mark - Demo Or Demolition (EP) (2004) [FLAC] {Pinto}\06 - Never Bend.wav

Peak level 99.9 %
Extraction speed 1.2 X
Track quality 100.0 %
Test CRC 8A903E9F
Copy CRC 8A903E9F
Track not present in AccurateRip database
Copy OK


None of the tracks are present in the AccurateRip database

No errors occurred

End of status report

–– CUETools DB Plugin V2.1.6

[CTDB TOCID: OMNLBBt2ON.0RtXUfWPKABHxzhA-] found
Submit result: OMNLBBt2ON.0RtXUfWPKABHxzhA- has been confirmed
Track | CTDB Status
1 | (1/1) Accurately ripped
2 | (1/1) Accurately ripped
3 | (1/1) Accurately ripped
4 | (1/1) Accurately ripped
5 | (1/1) Accurately ripped
6 | (1/1) Accurately ripped


==== Log checksum D1A211F77860FB16280A304CDCACE586E4974B8871D8BF1AB6CFCC595679DDE5 ====


Money Mark - Demo? Or Demolition? (EP) (2004) {Pinto/Chocolate Industries} **[RE-UP]**