Subcategories
Tags
Language
Tags

Electric Light Orchestra - The BBC Sessions (1999)

Posted By: popsakov
Electric Light Orchestra - The BBC Sessions (1999)

Electric Light Orchestra - The BBC Sessions (1999)
EAC Rip | FLAC (Tracks) + Cue + m3u + Log ~ 351 Mb | MP3 CBR320 ~ 143 Mb
Covers Included | 00:56:57 | RAR 5% Recovery
Eagle Records #EDL EAG 215-2 / EAMCD095 / GAS 0000095 EAM
Progressive Rock / Art Rock / Symphonic Rock / Classic Rock

For the ELO lover who enjoyed the full sound from the early days heavy on cello and classical strings to accompany the developing ELO sound. These recordings were done live in the BBC studio in three seperate sessions during 1972-1974 and are made without a live audience. Great cuts from the first three ELO albums are featured and performed in grand style. If you enjoy early ELO, you won't be disappointed with this set.

***************

Electric Light Orchestra - The BBC Sessions (1999)

Electric Light Orchestra - The BBC Sessions (1999)

Track List:

In Session With Bob Harris 27.01.1972
01. Kuiama [11:06]
02. Roll Over Beethoven [7:40]
In Session With Bob Harris 30.04.1973
03. From the Sun to the World [7:19]
04. Momma [6:56]
05. In the Hall of Mountain King [5:42]
In Session With Bob Harris 11.03.1974
06. King of the Universe [2:35]
07. Bluebird is Dead [4:24]
08. New World Rising [4:02]
09. Daybreaker [3:32]
10. Ma Ma Ma Belle [3:40]

Personnel:
Bass - Mike D'Albuquerque
Cello - Colin Walker (tracks: 1 to 5), Hugh McDowell (tracks: 6 to 10), Mike Edwards
Drums - Bev Bevan
Keyboards, Guitar - Richard Tandy
Violin - Mik Kaminski (tracks: 6 to 10), Wilf Gibson (tracks: 1 to 5)
Vocals, Guitar - Jeff Lynne

Exact Audio Copy V1.0 beta 3 from 29. August 2011

EAC extraction logfile from 3. May 2012, 18:48

Electric Light Orchestra / The BBC Sessions

Used drive : ATAPI DVD A DH16AASH Adapter: 1 ID: 1

Read mode : Secure
Utilize accurate stream : Yes
Defeat audio cache : Yes
Make use of C2 pointers : No

Read offset correction : 6
Overread into Lead-In and Lead-Out : No
Fill up missing offset samples with silence : Yes
Delete leading and trailing silent blocks : No
Null samples used in CRC calculations : Yes
Used interface : Native Win32 interface for Win NT & 2000
Gap handling : Appended to previous track

Used output format : User Defined Encoder
Selected bitrate : 1024 kBit/s
Quality : High
Add ID3 tag : No
Command line compressor : C:\Program Files (x86)\FLAC\flac.exe
Additional command line options : -8 -V -T "ARTIST=%artist%" -T "TITLE=%title%" -T "ALBUM=%albumtitle%" -T "DATE=%year%" -T "TRACKNUMBER=%tracknr%" -T "GENRE=%genre%" -T "PERFORMER=%albuminterpret%" -T "COMPOSER=%composer%" %haslyrics%–tag-from-file=LYRICS="%lyricsfile%"%haslyrics% -T "ALBUMARTIST=%albumartist%" -T "ALBUM ARTIST=%albumartist%" -T "DISCNUMBER=%cdnumber%" -T "TOTALDISCS=%totalcds%" -T "TOTALTRACKS=%numtracks%" -T "COMMENT=EAC V1.0 beta 2, Secure Mode, Test & Copy, AccurateRip, FLAC -8" %source% -o %dest%


TOC of the extracted CD

Track | Start | Length | Start sector | End sector
––––––––––––––––––––––––––––-
1 | 0:00.00 | 11:05.50 | 0 | 49924
2 | 11:05.50 | 7:40.36 | 49925 | 84460
3 | 18:46.11 | 7:19.10 | 84461 | 117395
4 | 26:05.21 | 6:56.07 | 117396 | 148602
5 | 33:01.28 | 5:42.25 | 148603 | 174277
6 | 38:43.53 | 2:35.00 | 174278 | 185902
7 | 41:18.53 | 4:24.18 | 185903 | 205720
8 | 45:42.71 | 4:01.57 | 205721 | 223852
9 | 49:44.53 | 3:31.63 | 223853 | 239740
10 | 53:16.41 | 3:40.04 | 239741 | 256244


Track 1

Filename F:\Converted Flac\01 Kuiama.wav

Pre-gap length 0:00:02.00

Peak level 92.8 %
Extraction speed 3.3 X
Track quality 99.9 %
Test CRC B7B3D56D
Copy CRC B7B3D56D
Accurately ripped (confidence 2) [F422FE9C] (AR v2)
Copy OK

Track 2

Filename F:\Converted Flac\02 Roll Over Beethoven.wav

Peak level 97.1 %
Extraction speed 3.7 X
Track quality 99.9 %
Test CRC FB6174C5
Copy CRC FB6174C5
Accurately ripped (confidence 2) [FF982B63] (AR v2)
Copy OK

Track 3

Filename F:\Converted Flac\03 From the Sun to the World.wav

Peak level 80.7 %
Extraction speed 4.5 X
Track quality 100.0 %
Test CRC 82E0DBAC
Copy CRC 82E0DBAC
Accurately ripped (confidence 2) [8A95817E] (AR v2)
Copy OK

Track 4

Filename F:\Converted Flac\04 Momma.wav

Peak level 92.8 %
Extraction speed 4.8 X
Track quality 100.0 %
Test CRC 6BFBC10D
Copy CRC 6BFBC10D
Accurately ripped (confidence 2) [D399EC4E] (AR v2)
Copy OK

Track 5

Filename F:\Converted Flac\05 In the Hall of Mountain King.wav

Peak level 91.8 %
Extraction speed 5.0 X
Track quality 100.0 %
Test CRC CC73F533
Copy CRC CC73F533
Accurately ripped (confidence 2) [5A1843FB] (AR v2)
Copy OK

Track 6

Filename F:\Converted Flac\06 King of the Universe.wav

Peak level 96.0 %
Extraction speed 3.5 X
Track quality 99.9 %
Test CRC 8183C2FF
Copy CRC 8183C2FF
Accurately ripped (confidence 2) [38240054] (AR v2)
Copy OK

Track 7

Filename F:\Converted Flac\07 Bluebird is Dead.wav

Peak level 100.0 %
Extraction speed 4.3 X
Track quality 99.9 %
Test CRC B938439B
Copy CRC B938439B
Accurately ripped (confidence 2) [39D28C37] (AR v2)
Copy OK

Track 8

Filename F:\Converted Flac\08 New World Rising.wav

Peak level 95.8 %
Extraction speed 5.3 X
Track quality 100.0 %
Test CRC 447AAB7A
Copy CRC 447AAB7A
Accurately ripped (confidence 2) [6471EF31] (AR v2)
Copy OK

Track 9

Filename F:\Converted Flac\09 Daybreaker.wav

Peak level 96.7 %
Extraction speed 4.3 X
Track quality 99.9 %
Test CRC 060D88F9
Copy CRC 060D88F9
Accurately ripped (confidence 2) [9419B3D2] (AR v2)
Copy OK

Track 10

Filename F:\Converted Flac\10 Ma Ma Ma Belle.wav

Peak level 100.0 %
Extraction speed 5.4 X
Track quality 100.0 %
Test CRC 13521153
Copy CRC 13521153
Accurately ripped (confidence 2) [58EAE16F] (AR v2)
Copy OK


All tracks accurately ripped

No errors occurred

End of status report

==== Log checksum D2A49BB120CA00EE3D53DDAE72904A7048E4E3E5913D2971B0A621A07771B5B0 ====

[CUETools log; Date: 26.05.2018 23:32:52; Version: 2.1.6]
[CTDB TOCID: n5FGzTx0lzfqysWpfg2DR6xspGc-] found.
Track | CTDB Status
1 | (5/5) Accurately ripped
2 | (5/5) Accurately ripped
3 | (5/5) Accurately ripped
4 | (5/5) Accurately ripped
5 | (5/5) Accurately ripped
6 | (5/5) Accurately ripped
7 | (5/5) Accurately ripped
8 | (5/5) Accurately ripped
9 | (5/5) Accurately ripped
10 | (5/5) Accurately ripped
[AccurateRip ID: 0019ba6e-00c3267c-a20d580a] found.
Track [ CRC | V2 ] Status
01 [e2c1bbed|f422fe9c] (5+4/9) Accurately ripped
02 [d37582b8|ff982b63] (5+4/9) Accurately ripped
03 [4723cd06|8a95817e] (5+4/9) Accurately ripped
04 [d7aae847|d399ec4e] (5+4/9) Accurately ripped
05 [e5262f40|5a1843fb] (5+4/9) Accurately ripped
06 [51655944|38240054] (5+4/9) Accurately ripped
07 [bcfd16a3|39d28c37] (5+4/9) Accurately ripped
08 [c13ce033|6471ef31] (5+4/9) Accurately ripped
09 [2d272fbd|9419b3d2] (5+4/9) Accurately ripped
10 [7b11f351|58eae16f] (5+4/9) Accurately ripped

Track Peak [ CRC32 ] [W/O NULL] [ LOG ]
– 100,0 [EC37838C] [466329B2]
01 92,8 [B7B3D56D] [EFF47ECF] CRC32
02 97,1 [FB6174C5] [8A37CD63] CRC32
03 80,6 [82E0DBAC] [315F9869] CRC32
04 92,8 [6BFBC10D] [BAF015AF] CRC32
05 91,8 [CC73F533] [8443618D] CRC32
06 96,0 [8183C2FF] [1432F6AA] CRC32
07 100,0 [B938439B] [F3F91661] CRC32
08 95,8 [447AAB7A] [253CA467] CRC32
09 96,7 [060D88F9] [8BC5F7B1] CRC32
10 100,0 [13521153] [287BF5D9] CRC32

Electric Light Orchestra - The BBC Sessions (1999)


All thanks go to the original ripper(s) …

>>> Electric Light Orchestra in my Blog <<<

DOWNLOAD: