Subcategories
Tags
Language
Tags

Buddy DeFranco - 1949-1952 (2007)

Posted By: gribovar
Buddy DeFranco - 1949-1952 (2007)

Buddy DeFranco - 1949-1952 (2007)
EAC Rip | FLAC (tracks+.cue+log) - 199 MB | MP3 CBR 320 kbps (LAME 3.93) - 167 MB | Covers (3 MB) included
Genre: Jazz, Swing, Big Band | RAR 3% Rec. | Label: Classics Records (CLASSICS1445)

This issue of Buddy DeFranco's recordings as a leader of both a quintet and an orchestra between 1949 and 1952 is a welcome one. The material on these 24 cuts is standard fare from the swing era, which was way over by 1949, but it proves that DeFranco knew how to lead a big band and swing hard as a soloist in a quintet setting - especially with the company he kept. Some of his crew on these sides include Serge Chaloff, Teddy Charles, Teddy Kotick, Lee Konitz, Max Roach, Jimmy Raney, and Al Cohn, just to name a few. Arrangements for these tunes were done by DeFranco, George Russell, and Manny Albam, which gives the listener a taste of the varied sonic interests of the great clarinetist. The sound on these sides is a tiny bit thin, but that's a minor complaint. The material swings no matter the arrangement or the size of the band. This is an intimate look at an often overlooked jazz great.
Tracklist:
01. The Boy Next Door
02. A Bird in Igor's Yard
03. This Time the Dream's on Me
04. Bud's Invention
05. When We Are Alone (Penthouse Serenade)
06. Extrovert
07. Good for Nothin' Joe
08. Aishie
09. Dancing on the Ceiling
10. Out of Nowhere
11. Body and Soul
12. King Phillip Stomp
13. Rumpus Room
14. Make Believe
15. St. Louis Blues
16. Why Do I Love You
17. The Closer You Are
18. Too Many Dreams
19. Swing Low Sweet Clarinet
20. Will You Still Be Mine?
21. Oh, Lady Be Good!
22. Buddy's Blues
23. Gone with the Wind
24. Sweet Georgia Brown

Total time: 01:09:26

Exact Audio Copy V1.0 beta 1 from 15. November 2010

EAC extraction logfile from 30. October 2011, 13:54

Buddy Defranco / 1949-1952

Used drive : TSSTcorpCDDVDW SH-S203N Adapter: 0 ID: 2

Read mode : Secure
Utilize accurate stream : Yes
Defeat audio cache : Yes
Make use of C2 pointers : No

Read offset correction : 6
Overread into Lead-In and Lead-Out : No
Fill up missing offset samples with silence : Yes
Delete leading and trailing silent blocks : No
Null samples used in CRC calculations : Yes
Used interface : Installed external ASPI interface
Gap handling : Appended to previous track

Used output format : User Defined Encoder
Selected bitrate : 768 kBit/s
Quality : High
Add ID3 tag : No
Command line compressor : C:\Program Files\Exact Audio Copy-NEW\Flac\flac.exe
Additional command line options : -8 -V -T "ARTIST=%a" -T "TITLE=%t" -T "ALBUM=%g" -T "DATE=%y" -T "TRACKNUMBER=%n" -T "TOTALTRACKS=%x" -T "GENRE=%m" -T "ALBUMARTIST=%v" -T "ALBUM ARTIST=%v" -T "COMMENT=EAC V1.01b1, Secure Mode, Test & Copy, AccurateRip, FL


TOC of the extracted CD

Track | Start | Length | Start sector | End sector
––––––––––––––––––––––––––––-
1 | 0:00.00 | 2:36.29 | 0 | 11728
2 | 2:36.29 | 2:54.16 | 11729 | 24794
3 | 5:30.45 | 3:07.49 | 24795 | 38868
4 | 8:38.19 | 2:39.30 | 38869 | 50823
5 | 11:17.49 | 3:04.16 | 50824 | 64639
6 | 14:21.65 | 2:56.55 | 64640 | 77894
7 | 17:18.45 | 2:47.47 | 77895 | 90466
8 | 20:06.17 | 3:03.48 | 90467 | 104239
9 | 23:09.65 | 3:00.32 | 104240 | 117771
10 | 26:10.22 | 3:06.73 | 117772 | 131794
11 | 29:17.20 | 3:20.53 | 131795 | 146847
12 | 32:37.73 | 2:52.46 | 146848 | 159793
13 | 35:30.44 | 2:49.39 | 159794 | 172507
14 | 38:20.08 | 2:52.05 | 172508 | 185412
15 | 41:12.13 | 2:38.46 | 185413 | 197308
16 | 43:50.59 | 2:31.40 | 197309 | 208673
17 | 46:22.24 | 3:16.64 | 208674 | 223437
18 | 49:39.13 | 2:45.13 | 223438 | 235825
19 | 52:24.26 | 3:07.38 | 235826 | 249888
20 | 55:31.64 | 2:34.13 | 249889 | 261451
21 | 58:06.02 | 2:18.29 | 261452 | 271830
22 | 60:24.31 | 3:21.28 | 271831 | 286933
23 | 63:45.59 | 2:52.71 | 286934 | 299904
24 | 66:38.55 | 2:47.70 | 299905 | 312499


Track 1

Filename J:\New Rips\Buddy Defranco - 1949-1952 (2007) [FLAC]\disc 3of3\01 - The Boy Next Door.wav

Pre-gap length 0:00:02.00

Peak level 100.0 %
Extraction speed 3.0 X
Track quality 99.9 %
Test CRC 6AB09959
Copy CRC 6AB09959
Track not present in AccurateRip database
Copy OK

Track 2

Filename J:\New Rips\Buddy Defranco - 1949-1952 (2007) [FLAC]\disc 3of3\02 - A Bird In Igor's Yard.wav

Pre-gap length 0:00:02.10

Peak level 100.0 %
Extraction speed 4.5 X
Track quality 100.0 %
Test CRC C8C5F82D
Copy CRC C8C5F82D
Track not present in AccurateRip database
Copy OK

Track 3

Filename J:\New Rips\Buddy Defranco - 1949-1952 (2007) [FLAC]\disc 3of3\03 - This Time The Dream's On Me.wav

Pre-gap length 0:00:02.10

Peak level 100.0 %
Extraction speed 4.8 X
Track quality 100.0 %
Test CRC 559E6232
Copy CRC 559E6232
Track not present in AccurateRip database
Copy OK

Track 4

Filename J:\New Rips\Buddy Defranco - 1949-1952 (2007) [FLAC]\disc 3of3\04 - Bud's Invention.wav

Pre-gap length 0:00:02.10

Peak level 100.0 %
Extraction speed 3.6 X
Track quality 99.9 %
Test CRC 02672F39
Copy CRC 02672F39
Track not present in AccurateRip database
Copy OK

Track 5

Filename J:\New Rips\Buddy Defranco - 1949-1952 (2007) [FLAC]\disc 3of3\05 - When We Are Alone.wav

Pre-gap length 0:00:02.10

Peak level 100.0 %
Extraction speed 5.3 X
Track quality 100.0 %
Test CRC A6C75FB8
Copy CRC A6C75FB8
Track not present in AccurateRip database
Copy OK

Track 6

Filename J:\New Rips\Buddy Defranco - 1949-1952 (2007) [FLAC]\disc 3of3\06 - Extrovert.wav

Pre-gap length 0:00:02.10

Peak level 100.0 %
Extraction speed 5.6 X
Track quality 100.0 %
Test CRC 2F122DB1
Copy CRC 2F122DB1
Track not present in AccurateRip database
Copy OK

Track 7

Filename J:\New Rips\Buddy Defranco - 1949-1952 (2007) [FLAC]\disc 3of3\07 - Good For Nothin' Joe.wav

Pre-gap length 0:00:02.10

Peak level 100.0 %
Extraction speed 5.8 X
Track quality 100.0 %
Test CRC 5D4B9181
Copy CRC 5D4B9181
Track not present in AccurateRip database
Copy OK

Track 8

Filename J:\New Rips\Buddy Defranco - 1949-1952 (2007) [FLAC]\disc 3of3\08 - Aishie.wav

Pre-gap length 0:00:02.10

Peak level 100.0 %
Extraction speed 4.5 X
Track quality 99.9 %
Test CRC D4BF1706
Copy CRC D4BF1706
Track not present in AccurateRip database
Copy OK

Track 9

Filename J:\New Rips\Buddy Defranco - 1949-1952 (2007) [FLAC]\disc 3of3\09 - Dancing On The Ceiling.wav

Pre-gap length 0:00:02.10

Peak level 100.0 %
Extraction speed 6.3 X
Track quality 100.0 %
Test CRC F44EA8AB
Copy CRC F44EA8AB
Track not present in AccurateRip database
Copy OK

Track 10

Filename J:\New Rips\Buddy Defranco - 1949-1952 (2007) [FLAC]\disc 3of3\10 - Out Of Nowhere.wav

Pre-gap length 0:00:02.10

Peak level 100.0 %
Extraction speed 4.9 X
Track quality 99.9 %
Test CRC 006A06BA
Copy CRC 006A06BA
Track not present in AccurateRip database
Copy OK

Track 11

Filename J:\New Rips\Buddy Defranco - 1949-1952 (2007) [FLAC]\disc 3of3\11 - Body And Soul.wav

Pre-gap length 0:00:02.10

Peak level 100.0 %
Extraction speed 6.9 X
Track quality 100.0 %
Test CRC 067A444B
Copy CRC 067A444B
Track not present in AccurateRip database
Copy OK

Track 12

Filename J:\New Rips\Buddy Defranco - 1949-1952 (2007) [FLAC]\disc 3of3\12 - King Phillip Stomp.wav

Pre-gap length 0:00:02.10

Peak level 100.0 %
Extraction speed 6.9 X
Track quality 100.0 %
Test CRC E8CF503D
Copy CRC E8CF503D
Track not present in AccurateRip database
Copy OK

Track 13

Filename J:\New Rips\Buddy Defranco - 1949-1952 (2007) [FLAC]\disc 3of3\13 - Rumpus Room.wav

Pre-gap length 0:00:02.10

Peak level 100.0 %
Extraction speed 6.9 X
Track quality 100.0 %
Test CRC 94223E32
Copy CRC 94223E32
Track not present in AccurateRip database
Copy OK

Track 14

Filename J:\New Rips\Buddy Defranco - 1949-1952 (2007) [FLAC]\disc 3of3\14 - Make Believe.wav

Pre-gap length 0:00:02.10

Peak level 100.0 %
Extraction speed 7.2 X
Track quality 100.0 %
Test CRC D269F560
Copy CRC D269F560
Track not present in AccurateRip database
Copy OK

Track 15

Filename J:\New Rips\Buddy Defranco - 1949-1952 (2007) [FLAC]\disc 3of3\15 - St Louis Blues.wav

Pre-gap length 0:00:02.10

Peak level 100.0 %
Extraction speed 7.3 X
Track quality 100.0 %
Test CRC 6CC1F6DC
Copy CRC 6CC1F6DC
Track not present in AccurateRip database
Copy OK

Track 16

Filename J:\New Rips\Buddy Defranco - 1949-1952 (2007) [FLAC]\disc 3of3\16 - Why Do I Love You.wav

Pre-gap length 0:00:02.10

Peak level 100.0 %
Extraction speed 7.4 X
Track quality 100.0 %
Test CRC A24200B3
Copy CRC A24200B3
Track not present in AccurateRip database
Copy OK

Track 17

Filename J:\New Rips\Buddy Defranco - 1949-1952 (2007) [FLAC]\disc 3of3\17 - The Closer You Are.wav

Pre-gap length 0:00:02.10

Peak level 100.0 %
Extraction speed 7.9 X
Track quality 100.0 %
Test CRC 161CE16A
Copy CRC 161CE16A
Track not present in AccurateRip database
Copy OK

Track 18

Filename J:\New Rips\Buddy Defranco - 1949-1952 (2007) [FLAC]\disc 3of3\18 - Too Many Dreams.wav

Pre-gap length 0:00:02.10

Peak level 100.0 %
Extraction speed 7.8 X
Track quality 100.0 %
Test CRC 77535744
Copy CRC 77535744
Track not present in AccurateRip database
Copy OK

Track 19

Filename J:\New Rips\Buddy Defranco - 1949-1952 (2007) [FLAC]\disc 3of3\19 - Swing Low Sweet Clarinet.wav

Pre-gap length 0:00:02.10

Peak level 100.0 %
Extraction speed 8.1 X
Track quality 100.0 %
Test CRC 5EC98EDA
Copy CRC 5EC98EDA
Track not present in AccurateRip database
Copy OK

Track 20

Filename J:\New Rips\Buddy Defranco - 1949-1952 (2007) [FLAC]\disc 3of3\20 - Will You Still Be Mine.wav

Pre-gap length 0:00:02.10

Peak level 100.0 %
Extraction speed 7.7 X
Track quality 100.0 %
Test CRC 9238C7F7
Copy CRC 9238C7F7
Track not present in AccurateRip database
Copy OK

Track 21

Filename J:\New Rips\Buddy Defranco - 1949-1952 (2007) [FLAC]\disc 3of3\21 - Oh Lady Be Good.wav

Pre-gap length 0:00:02.10

Peak level 100.0 %
Extraction speed 2.6 X
Track quality 100.0 %
Test CRC 7E66E327
Copy CRC 7E66E327
Track not present in AccurateRip database
Copy OK

Track 22

Filename J:\New Rips\Buddy Defranco - 1949-1952 (2007) [FLAC]\disc 3of3\22 - Buddy's Blues.wav

Pre-gap length 0:00:02.10

Peak level 100.0 %
Extraction speed 5.0 X
Track quality 100.0 %
Test CRC 3998D68D
Copy CRC 3998D68D
Track not present in AccurateRip database
Copy OK

Track 23

Filename J:\New Rips\Buddy Defranco - 1949-1952 (2007) [FLAC]\disc 3of3\23 - Gone With The Wind.wav

Pre-gap length 0:00:02.10

Peak level 100.0 %
Extraction speed 8.6 X
Track quality 100.0 %
Test CRC B62AC721
Copy CRC B62AC721
Track not present in AccurateRip database
Copy OK

Track 24

Filename J:\New Rips\Buddy Defranco - 1949-1952 (2007) [FLAC]\disc 3of3\24 - Sweet Georgia Brown.wav

Pre-gap length 0:00:02.10

Peak level 99.7 %
Extraction speed 8.7 X
Track quality 100.0 %
Test CRC BD90ACF9
Copy CRC BD90ACF9
Track not present in AccurateRip database
Copy OK


None of the tracks are present in the AccurateRip database

No errors occurred

End of status report

==== Log checksum 8219312F865BC0C5CDA4CA47804D1979806F0C667109D4B9FFF97462515CAAC2 ====

[CUETools log; Date: 04.05.2021 14:28:09; Version: 2.1.4]
[CTDB TOCID: AjFWIiG2m3qhhwjA4_KeB8kpo_s-] found.
Track | CTDB Status
1 | (1/1) Accurately ripped
2 | (1/1) Accurately ripped
3 | (1/1) Accurately ripped
4 | (1/1) Accurately ripped
5 | (1/1) Accurately ripped
6 | (1/1) Accurately ripped
7 | (1/1) Accurately ripped
8 | (1/1) Accurately ripped
9 | (1/1) Accurately ripped
10 | (1/1) Accurately ripped
11 | (1/1) Accurately ripped
12 | (1/1) Accurately ripped
13 | (1/1) Accurately ripped
14 | (1/1) Accurately ripped
15 | (1/1) Accurately ripped
16 | (1/1) Accurately ripped
17 | (1/1) Accurately ripped
18 | (1/1) Accurately ripped
19 | (1/1) Accurately ripped
20 | (1/1) Accurately ripped
21 | (1/1) Accurately ripped
22 | (1/1) Accurately ripped
23 | (1/1) Accurately ripped
24 | (1/1) Accurately ripped
[AccurateRip ID: 003be563-040e6003-52104618] found.
Track [ CRC | V2 ] Status
01 [41a1835c|538228f3] (0+2/2) Accurately ripped
02 [7a23c924|46ec1177] (0+2/2) Accurately ripped
03 [4ec24ce3|f3ed4115] (0+2/2) Accurately ripped
04 [41a20222|cc378cba] (0+2/2) Accurately ripped
05 [b5573492|8963f497] (0+2/2) Accurately ripped
06 [6112ae68|aeeca543] (0+2/2) Accurately ripped
07 [4c1254cd|2ec32ede] (0+2/2) Accurately ripped
08 [b86d1620|8d8d2ea7] (0+2/2) Accurately ripped
09 [a95cfafa|926416cd] (0+2/2) Accurately ripped
10 [2bd4be94|2a8ba05e] (0+2/2) Accurately ripped
11 [e96f2f51|154bf32a] (0+2/2) Accurately ripped
12 [919123ca|f7d250b1] (0+2/2) Accurately ripped
13 [ec647a28|4451a564] (0+2/2) Accurately ripped
14 [37488ef2|02638d38] (0+2/2) Accurately ripped
15 [20ce3681|c4a1d163] (0+2/2) Accurately ripped
16 [96ea776b|cac93486] (0+2/2) Accurately ripped
17 [445a1129|8fb8c4cf] (0+2/2) Accurately ripped
18 [a808c8d1|76ab4be8] (0+2/2) Accurately ripped
19 [b83bb756|8c9ae76c] (0+2/2) Accurately ripped
20 [338c8253|1d1aa605] (0+2/2) Accurately ripped
21 [daf2422f|286407ff] (0+2/2) Accurately ripped
22 [8e62d3a3|62a4c787] (0+2/2) Accurately ripped
23 [b50e9b77|e667f4f4] (0+2/2) Accurately ripped
24 [81658312|6171fe3c] (0+2/2) Accurately ripped

Track Peak [ CRC32 ] [W/O NULL] [ LOG ]
– 100,0 [5D6438F7] [51622200]
01 100,0 [6AB09959] [B706FB6B] CRC32
02 100,0 [C8C5F82D] [E64B8B07] CRC32
03 100,0 [559E6232] [0F7C7EE6] CRC32
04 100,0 [02672F39] [AD7A8665] CRC32
05 100,0 [A6C75FB8] [899F7740] CRC32
06 100,0 [2F122DB1] [DD049875] CRC32
07 100,0 [5D4B9181] [3D55D7F6] CRC32
08 100,0 [D4BF1706] [2A9C268A] CRC32
09 100,0 [F44EA8AB] [2ADB7452] CRC32
10 100,0 [006A06BA] [FDF80686] CRC32
11 100,0 [067A444B] [7F98D5FE] CRC32
12 100,0 [E8CF503D] [D9C02D3E] CRC32
13 100,0 [94223E32] [41B501DA] CRC32
14 100,0 [D269F560] [84C960A3] CRC32
15 100,0 [6CC1F6DC] [EE5A004C] CRC32
16 100,0 [A24200B3] [6BDE0005] CRC32
17 100,0 [161CE16A] [B95277AA] CRC32
18 100,0 [77535744] [EE55DB64] CRC32
19 100,0 [5EC98EDA] [452F3C80] CRC32
20 100,0 [9238C7F7] [24CBAECE] CRC32
21 100,0 [7E66E327] [FA581A97] CRC32
22 100,0 [3998D68D] [EFE125E8] CRC32
23 100,0 [B62AC721] [B6588F8D] CRC32
24 99,7 [BD90ACF9] [89512940] CRC32

Thanks to the original releaser

See also:
Buddy De Franco - Four Classic Albums Plus (1952-1956) [Reissue 2014]
Terry Gibbs & Buddy DeFranco - Play Steve Allen (1999)
Buddy De Franco - Bravura: Complete 1959 Septette Sessions (2011)