Tags
Language
Tags
November 2022
Su Mo Tu We Th Fr Sa
30 31 1 2 3 4 5
6 7 8 9 10 11 12
13 14 15 16 17 18 19
20 21 22 23 24 25 26
27 28 29 30 1 2 3

Maribou State - Portraits (2015) [Official Digital Download]

Posted By: HDV
Maribou State - Portraits (2015) [Official Digital Download]

Maribou State - Portraits (2015)
FLAC (tracks) 24-bit/44,1 kHz | Time - 40:57 minutes | 489 MB
Studio Master, Official Digital Download | Artwork: Front/Rear cover

London-based musicians Chris Davids and Liam Ivory AKA Maribou State release their debut long-player on Ninja Tune's sub-label Counter Records. Following a slew of releases on Fatboy Slim’s Southern Fried Records, the pair offer up ten original tracks and collaborations with Pedestrian, Holly Walker, and Jono McCleery. "Portraits" is set to expand on the instrumentalist nature of their soundscape, illuminating the organic, pleasantly rough textures of their music.

Maribou State - Portraits (2015) [Official Digital Download]

On first listen, U.K. duo Maribou State seem like another sad-robot James Blake clone, mixing downtrodden post-dubstep beats with melancholy pitch-shifted vocals. However, the multilayered compositions of debut full-length Portraits prove that they're much more than that. The duo's mostly midtempo tracks feature busy yet restrained production, creatively constructing moody beatscapes with subtly manipulated rhythms and unexpected samples. The grainy guitars and synths give the songs a rough edge, keeping them from sounding too flashy, and contributing to the album's slightly strange aura. The sour bass synth during "The Clown" sounds a bit jarring at first, but becomes addictive on repeated listens. The duo take several approaches with their use of vocals, disguising them in effects as well as letting them ring out clearly, especially on the songs with guest vocalists Holly Walker and Jono McCleery. Even on these songs, they blend the straightforward vocals with mutations of the same, as well as samples, such as the spoken snippet "sometimes you wheel, sometimes you deal, sometimes you have to rob and steal" which pops up during "Steal." Instrumental "Natural Fools" is a good showcase for their mastery of understated production techniques, with a slightly off-base beat framing clean, sparse guitar lines and distant strings, sparingly overlaid with dubby echo and ghostly vocal fragments. The album gracefully ends with airy string-and-piano closer "Varkala," breaking from the stately dance tempos of the preceding songs to deliver a cinematic drum crescendo finale. Portraits establishes Maribou State as an intriguing pair of sonic architects, capable of crafting intricate but not cluttered, blue but not depressing, emotive electronic pop music.

Tracklist:

01 - Home
02 - The Clown (feat Pedestrian)
03 - Rituals
04 - Steal (feat Holly Walker)
05 - Wallflower
06 - Say More (feat. Jono McCleery)
07 - Raincoats
08 - Midas (feat Holly Walker)
09 - Natural Fool
10 - Varkala

Analyzed: Maribou State / Portraits
––––––––––––––––––––––––––––––––––––––––

DR Peak RMS Duration Track
––––––––––––––––––––––––––––––––––––––––
DR5 -0.30 dB -7.31 dB 3:16 01-Home
DR5 -0.30 dB -7.49 dB 4:08 02-The Clown (feat Pedestrian)
DR5 -0.30 dB -8.24 dB 4:27 03-Rituals
DR5 -0.30 dB -8.10 dB 3:40 04-Steal (feat Holly Walker)
DR5 -0.30 dB -7.34 dB 3:43 05-Wallflower
DR6 -0.30 dB -9.79 dB 4:24 06-Say More (feat. Jono McCleery)
DR5 -0.30 dB -7.63 dB 4:38 07-Raincoats
DR5 -0.30 dB -6.65 dB 3:38 08-Midas (feat Holly Walker)
DR4 -0.30 dB -7.74 dB 5:39 09-Natural Fool
DR6 -0.30 dB -10.53 dB 3:24 10-Varkala
––––––––––––––––––––––––––––––––––––––––

Number of tracks: 10
Official DR value: DR5

Samplerate: 44100 Hz
Channels: 2
Bits per sample: 24
Bitrate: 1440 kbps
Codec: FLAC
================================================================================


Thanks to the Original customer!